WK綜合論壇, WK综合论坛

查看:85 回復:2 發表於 2021-6-11 08:47:02
本主題由 212love 於 2021-6-13 10:12 解除高亮
累計簽到:2129 天
連續簽到:1 天
發表於 2021-6-10 10:51:26 | 顯示全部樓層 |閱讀模式
VIP精品區,資源無限好賺金任務區,輕松賺金幣
加入VIP,享受高級特權宣傳賺金又升級,超級棒

自由鳥 Free.Byrd., 2021.[MKV / 5.56G] 1080p [複製鏈接]

影視分享
分類: 電影
題材: 喜劇 
地區: 美國 
語言: 英语 
格式: MKV 
年份: 2021
資源: BT资源
1.png ; }* b( [! P: k
! }- y) c1 P  N
◎译  名 自由鸟5 y0 ~4 r, C- ]' {* U( |+ a. s! W0 \
◎片  名 Free Byrd: _% ^9 ]( |: W7 Y# B2 Y
◎年  代 2021% v8 |, X- u" D& p# \
◎产  地 美国
; x# Q' m4 b) z! U2 [( ^% o◎类  别 喜剧# i0 v% V$ C0 }5 |
◎语  言 英语
6 a1 u7 x1 d- r- v◎上映日期 2021-04-01(美国)  Q4 b) x! |" p/ X6 K
◎豆瓣评分 /10 from 0 users* R& M. y" J/ g' j! X, I
◎豆瓣链接 https://movie.douban.com/subject/35420802/
7 y  A" N' r( `◎片  长 89分钟
* H0 |1 Y9 M) L2 w$ w% j1 v! [; T9 X◎主  演 雷蒙德·J·巴里 Raymond J. Barry- n: ^1 `, M+ V0 K- g* D2 k  t
      桑德瑞拉·艾弗里 Shondrella Avery1 q% e, @  J3 H; k8 P/ p; K$ i5 F
      珍妮·扬 Jeanne Young
5 m) q/ B0 T4 t- ~3 `7 C( |$ ^+ `) y
◎简  介 ( y# J4 G/ Y4 h- g
; o. L3 F4 z  a* J8 d( L
  A middle-aged underachieving van driver, Jay (Randy Nazarian), is assigned to drive an irascible senior, Harry (Raymond J. Barry), to a new home. Along the way they have a series of misadventures, including being picked up by a troupe of burlesque dancers led by Red (Shondrella Avery) and performing an impromptu comedy act. An enlightening journey that gives both men new perspective on life." v7 v" ]2 m1 R+ K4 Z% r0 U
Video
- y+ E. `+ S, r$ x5 v+ m+ HID : 1
  E* a+ O4 Z, k0 |Format : AVC
  F& l) c, D# |Format/Info : Advanced Video Codec, ]0 w8 [* q( q2 [, |
Format profile : [email protected]/ _4 I1 X6 ?; U: G+ T) I
Format settings : CABAC / 4 Ref Frames
8 T9 K+ p0 j# Z: t. @! lFormat settings, CABAC : Yes/ V- H0 t+ h6 R! p
Format settings, Reference frames : 4 frames
4 t* K+ \% ~3 z( [7 M! yCodec ID : V_MPEG4/ISO/AVC% g8 T# k& K4 k
Duration : 1 h 29 min
& w+ A3 }  \4 x" f2 W0 c4 G% YBit rate mode : Constant
) s* J0 C/ t3 C, jBit rate : 8 524 kb/s* M' D' T( Z. g- R
Nominal bit rate : 10 000 kb/s9 E2 ~' R. H! t
Width : 1 920 pixels
- M9 I" G" Z' Z  L; j" }' a; \Height : 1 040 pixels
$ z0 [) h7 @2 H5 f6 r: }Display aspect ratio : 1.85:1
+ J4 a! l$ \; A. Q9 q8 z$ gFrame rate mode : Constant2 C& M/ ^* q. @6 M  n4 c7 {
Frame rate : 23.976 (24000/1001/189150) FPS
( p) _. h) \2 d5 I  I2 ~* {Color space : YUV& K# V3 J3 e' ]- c
Chroma subsampling : 4:2:0- f5 z+ _8 N) p, X9 T5 S$ \4 v
Bit depth : 8 bits
, Y  t& j0 j; T* w+ a* ^& s1 B- X& iScan type : Progressive
: l4 t5 H# S( n- _Bits/(Pixel*Frame) : 0.178# Z  T9 n6 T4 g, Y, v
Stream size : 5.32 GiB (96%)5 z' }* A! `# Y. a3 k* D
Language : English+ Q" E3 c$ c# b- k7 S& t, U
Default : Yes- f. j2 `  k: V% ^4 R" ]. P/ M
Forced : No- I) @4 \' P+ {
Color range : Limited
; P  M! c( v8 ?; [5 d- jColor primaries : BT.709
* m7 G- w+ S2 p1 V1 q0 _+ T6 a; DTransfer characteristics : BT.709
1 N0 }* M* L5 y# J6 AMatrix coefficients : BT.709/ n- V, \. d, [8 T/ ]

# I7 c9 G3 a- cAudio" Y' K  \' \# `; x1 K0 Q
ID : 20 v( j0 B, T' K- l) d3 c9 u
Format : AC-3
8 E! v. I8 A. `" _/ l3 sFormat/Info : Audio Coding 39 _+ _* s( l5 k' |% d
Commercial name : Dolby Digital4 j( r5 e, X" e
Codec ID : A_AC3
3 r- m8 ^# W& w# x8 X: q. YDuration : 1 h 29 min9 b* q1 W+ U, t
Bit rate mode : Constant! Q+ l, D- O5 b+ y' ]3 F: S* V; X
Bit rate : 384 kb/s$ B3 i) \, G6 @7 a
Channel(s) : 6 channels2 f+ C1 e) `, k1 q
Channel layout : L R C LFE Ls Rs
8 _+ ^- ^* {7 G6 O& z$ lSampling rate : 48.0 kHz  X+ A& l" m$ j- p8 W. x
Frame rate : 31.250 FPS (1536 SPF)
5 q* R6 W0 Z: j# B8 A' w; pCompression mode : Lossy
, A5 U( v! n, R* V- O5 S8 `Stream size : 245 MiB (4%)
, D7 D8 m5 p$ ^4 iLanguage : English
3 ~! C& M) p' C+ K! ^: |Service kind : Complete Main1 `* i  [& J  B
Default : Yes* a5 V2 ?, D: G
Forced : No, e  W, p1 P5 N& K: B4 p4 x* l. P

- J7 T$ A; i' B( sText #1
) i) t" Q. X9 f0 ?ID : 3( Q+ |9 \4 Q( }- @
Format : UTF-8( {$ B" _) B  ]: [  m
Codec ID : S_TEXT/UTF8# z0 H1 q9 r6 S
Codec ID/Info : UTF-8 Plain Text
4 q; N" Z: t& s& q& ?/ sDuration : 1 h 25 min
9 ^4 ?6 g1 W! X/ S  h- J! tBit rate : 74 b/s
# K$ _8 C& B. X, n$ ^1 f( |  qCount of elements : 1636
0 j$ w& S! t. S9 ^1 `Stream size : 46.3 KiB (0%)
1 U  b9 E4 k! L/ {6 o) r( \Title : English3 B9 c. e& [2 K6 `; O2 P' n
Language : English9 |- @: ^+ D+ `2 h# P
Default : Yes# J# U3 \8 T4 m: z0 M
Forced : No
" W& `4 P7 J$ m9 H  p, X8 X3 l% p: r  e9 b/ j- C& K. ]
Text #2* E8 M5 C9 O2 }$ q& M
ID : 4% v0 O/ @- t3 [0 o% u# q
Format : UTF-8
5 W& f" W: ?/ W! y6 ECodec ID : S_TEXT/UTF8
' b1 F% B: {7 x* v8 B1 XCodec ID/Info : UTF-8 Plain Text
" s% ?, ]/ A0 wDuration : 1 h 25 min
( [5 P7 t7 G0 P4 |' W6 P8 \Bit rate : 76 b/s
; |; a2 I8 G6 O; Z2 rCount of elements : 1730! g! e9 Y8 `% U2 l5 Y2 y3 Z
Stream size : 48.0 KiB (0%)/ r. s. z: I7 Z# M  g$ W; Q5 e, }
Title : English [SDH]
* `# `) k6 M' I2 yLanguage : English
$ N: U  E, m4 GDefault : No
$ o5 W3 u6 T( \% TForced : No
, K1 N: J9 `6 _" d: h. Q) V6 f1 U- |/ K9 y' n5 G% A7 }
Text #3
0 ]% w# j& |4 M% l1 M6 ^ID : 5
) D* Y+ j4 a9 O) F& ZFormat : UTF-8
* N8 o5 H/ H0 o0 \1 MCodec ID : S_TEXT/UTF8: u  K6 O* z" I, ?. B
Codec ID/Info : UTF-8 Plain Text; C2 M+ ^9 D0 C# h: ~
Duration : 1 h 25 min* T% q+ h% B; m0 k0 \" m
Bit rate : 79 b/s8 H+ n4 F: n$ c
Count of elements : 1782' d( t5 z3 P6 h8 |' \& \
Stream size : 49.8 KiB (0%)
" x2 B) Q8 s+ f8 ?1 l: STitle : Spanish [SDH]
7 F4 J7 I( Y% ?7 u5 uLanguage : Spanish6 i* E* s8 X# W6 n
Default : No& f1 p  j9 v. I4 S" ]( ?1 m  |
Forced : No3 v+ L; v+ ]& c) M" D( u
7 _" c& U& [- l; `5 s; d6 S# N
Menu5 B$ `$ D3 x/ i4 l' v+ T) m7 L
00:00:00.000 : Chapter 1
; W8 t8 T" {) b00:09:41.289 : Chapter 2
0 v" |# e* S4 ^5 J. c. }00:19:48.521 : Chapter 3/ }+ }- O9 Y, G4 q
00:31:25.009 : Chapter 4( Y  P* L: d5 H6 C/ A1 E$ _9 X
00:39:14.144 : Chapter 5% q- q; v/ f0 D4 r/ e
00:49:24.587 : Chapter 6  X0 I9 W% ]! J
00:57:55.179 : Chapter 7/ g1 b8 A, F5 t: b1 O! q
01:09:47.724 : Chapter 8. J, p8 i* y% G- X" K
01:19:56.666 : Chapter 9, C# }9 A0 c' g7 U' a6 f9 f% n3 V( Y
01:26:15.753 : Chapter 10
1 {. P* n5 x0 _2 u$ N

& I+ B/ j7 \% ]
  r) c0 S2 O( d! p

自由鳥. MKV.torrent

28.41 KB, 下載次數: 5

本帖點贊的會員︰

累計簽到:75 天
連續簽到:3 天
發表於 2021-6-10 16:51:48 | 顯示全部樓層
VIP精品區,資源無限好賺金任務區,輕松賺金幣
加入VIP,享受高級特權宣傳賺金又升級,超級棒
很讚的文章,謝謝咯!相信WK因為有你而更加精彩!
累計簽到:1101 天
連續簽到:46 天
發表於 2021-6-11 08:47:02 | 顯示全部樓層
辛苦了版主,謝謝您無私分享

回復樓主 親!! 下午好,中午養足了精神嗎?讓我們一起渡過下午茶時間,WK有您更精彩!

 分享同時學會感恩,一句感謝的話語,就是最大的支持!  歡迎交流討論
您需要登錄後才可以回帖 登錄 | 立即注册

本版積分規則

c重要聲明:本論壇是以即時上載言論的方式運作,WK論壇對所有言論的真實性、立場及版權等,不負任何法律責任。而一切言論只代表發佈者個人意見,並非本網站之立場,讀者及用戶務必自行判斷內容之真實性。 由於本論壇受到「即時上載言論」運作方式所規限,故不能完全監察所有言論,若讀者及用戶發現有內容出現「真實性、立場及版權」等問題,請聯絡我們:[email protected]論壇有權刪除任何言論(刪除前或不會作事先警告及通知)| SiteMap[網站地圖]

發表新帖 返回頂部